Home/News | About | Download | Documentation | Forum | Bug Reports | Contact | Donations | Consulting | Projects | Legal | Security | FATE


This forum has not been maintained for a long time and will probably get deleted in the near future.
For faster responses to your questions, please use StackOverflow instead and tag your questions with "FFmpeg".
If you need a backup of the posts from this forum, please contact me directly.

ffplay after 20161003 not support ass subtitle.

Discussions about problems encountered using ffplay.
Forum rules
FFmpeg is in a state of perpetual development and we do not currently have the person power to backport fixes to official releases. As such, if you wish to query or report a bug, you must try with the latest development branch revision of FFmpeg to confirm the issue still exists. The latest FFmpeg can be downloaded from here: http://www.ffmpeg.org/download.html

ffplay after 20161003 not support ass subtitle.

Postby jn_child » Wed Nov 23, 2016 2:35 pm

Command line: "ffplay.exe" -vf "ass=input.ass" -i "input.mkv"

This command works good with ffmpeg-20161003-cced839-win64-static , but not display video window with ffmpeg-20161004-be1d324-win64-static .

why ?

Thanks!
jn_child
 
Posts: 4
Joined: Wed Nov 23, 2016 2:28 pm

Re: ffplay after 20161003 not support ass subtitle.

Postby llogan » Wed Nov 23, 2016 9:15 pm

Works for me on Linux using ffplay version N-82623-gb96a6e2.

You'll need to show the complete console output from your command.

Also, try a newer version.
Get an answer more quickly by providing your actual ffmpeg command and the complete console output. Use the code button to format your command and output or your question will be ignored.
llogan
 
Posts: 2363
Joined: Fri Jan 25, 2013 9:47 pm
Location: Alaska

Re: ffplay after 20161003 not support ass subtitle.

Postby jn_child » Fri Nov 25, 2016 12:31 am

from ffmpeg-20161122-d316b21-win64-static.zip to ffmpeg-20161004-be1d324-win64-static , all version can't show video window.

with new 3.2 version command console output:
Code: Select all
ffplay started on 2016-11-25 at 08:30:02
Report written to "ffplay-20161125-083002.log"
ffplay version 3.2 Copyright (c) 2003-2016 the FFmpeg developers
  built with gcc 5.4.0 (GCC)
  configuration: --enable-gpl --enable-version3 --disable-w32threads --enable-dxva2 --enable-libmfx --enable-nvenc --enable-avisynth --enable-bzlib --enable-libebur128 --enable-fontconfig --enable-frei0r --enable-gnutls --enable-iconv --enable-libass --enable-libbluray --enable-libbs2b --enable-libcaca --enable-libfreetype --enable-libgme --enable-libgsm --enable-libilbc --enable-libmodplug --enable-libmp3lame --enable-libopencore-amrnb --enable-libopencore-amrwb --enable-libopenh264 --enable-libopenjpeg --enable-libopus --enable-librtmp --enable-libschroedinger --enable-libsnappy --enable-libsoxr --enable-libspeex --enable-libtheora --enable-libtwolame --enable-libvidstab --enable-libvo-amrwbenc --enable-libvorbis --enable-libvpx --enable-libwavpack --enable-libwebp --enable-libx264 --enable-libx265 --enable-libxavs --enable-libxvid --enable-libzimg --enable-lzma --enable-decklink --enable-zlib
  libavutil      55. 34.100 / 55. 34.100
  libavcodec     57. 64.100 / 57. 64.100
  libavformat    57. 56.100 / 57. 56.100
  libavdevice    57.  1.100 / 57.  1.100
  libavfilter     6. 65.100 /  6. 65.100
  libswscale      4.  2.100 /  4.  2.100
  libswresample   2.  3.100 /  2.  3.100
  libpostproc    54.  1.100 / 54.  1.100
Input #0, mov,mp4,m4a,3gp,3g2,mj2, from 'input.mp4':=    0B f=0/0
  Metadata:
    major_brand     : isom0 aq=    0KB vq=    0KB sq=    0B f=0/0
    minor_version   : 512
    compatible_brands: isomiso2avc1mp41
    encoder         : Lavf57.50.100
  Duration: 00:04:12.28, start: 0.000000, bitrate: 4039 kb/s
    Stream #0:0(eng): Video: h264 (High) (avc1 / 0x31637661), yuv420p, 1920x1040 [SAR 1:1 DAR 24:13], 3841 kb/s, 23.98 fps, 23.98 tbr, 24k tbn, 47.95 tbc (default)
    Metadata:
      handler_name    : VideoHandler
    Stream #0:1(eng): Audio: aac (LC) (mp4a / 0x6134706D), 48000 Hz, stereo, fltp, 193 kb/s (default)
    Metadata:
      handler_name    : SoundHandler
[Parsed_ass_0 @ 000000000682ee80] Shaper: FriBidi 0.19.6 (SIMPLE)
  10.65 A-V:    nan fd=   0 aq=   28KB vq= 3629KB sq=    0B f=0/0
jn_child
 
Posts: 4
Joined: Wed Nov 23, 2016 2:28 pm

Re: ffplay after 20161003 not support ass subtitle.

Postby jn_child » Fri Nov 25, 2016 12:35 am

with ffmpeg-20161003-cced839-win64-static version , video window show good , command console output :

Code: Select all
ffplay started on 2016-11-25 at 08:33:40
Report written to "ffplay-20161125-083340.log"
ffplay version N-81863-gcced839 Copyright (c) 2003-2016 the FFmpeg developers
  built with gcc 5.4.0 (GCC)
  configuration: --enable-gpl --enable-version3 --disable-w32threads --enable-dxva2 --enable-libmfx --enable-nvenc --enable-avisynth --enable-bzlib --enable-libebur128 --enable-fontconfig --enable-frei0r --enable-gnutls --enable-iconv --enable-libass --enable-libbluray --enable-libbs2b --enable-libcaca --enable-libfreetype --enable-libgme --enable-libgsm --enable-libilbc --enable-libmodplug --enable-libmp3lame --enable-libopencore-amrnb --enable-libopencore-amrwb --enable-libopenh264 --enable-libopenjpeg --enable-libopus --enable-librtmp --enable-libschroedinger --enable-libsnappy --enable-libsoxr --enable-libspeex --enable-libtheora --enable-libtwolame --enable-libvidstab --enable-libvo-amrwbenc --enable-libvorbis --enable-libvpx --enable-libwavpack --enable-libwebp --enable-libx264 --enable-libx265 --enable-libxavs --enable-libxvid --enable-libzimg --enable-lzma --enable-decklink --enable-zlib
  libavutil      55. 32.100 / 55. 32.100
  libavcodec     57. 60.101 / 57. 60.101
  libavformat    57. 51.102 / 57. 51.102
  libavdevice    57.  0.102 / 57.  0.102
  libavfilter     6. 63.100 /  6. 63.100
  libswscale      4.  1.100 /  4.  1.100
  libswresample   2.  2.100 /  2.  2.100
  libpostproc    54.  0.100 / 54.  0.100
Input #0, mov,mp4,m4a,3gp,3g2,mj2, from 'input.mp4':=    0B f=0/0
  Metadata:
    major_brand     : isom
    minor_version   : 512
    compatible_brands: isomiso2avc1mp41
    encoder         : Lavf57.50.100
  Duration: 00:04:12.28, start: 0.000000, bitrate: 4039 kb/s
    Stream #0:0(eng): Video: h264 (High) (avc1 / 0x31637661), yuv420p, 1920x1040 [SAR 1:1 DAR 24:13], 3841 kb/s, 23.98 fps, 23.98 tbr, 24k tbn, 47.95 tbc (default)
    Metadata:
VideoHandlerr_name    :     nan    :  0.000 fd=   0 aq=    0KB vq=    0KB sq=    0B f=0/0
    Stream #0:1(eng): Audio: aac (LC) (mp4a / 0x6134706D), 48000 Hz, stereo, fltp, 193 kb/s (default)
    Metadata:
      handler_name    : SoundHandler
[Parsed_ass_0 @ 000000000691ed00] Shaper: FriBidi 0.19.6 (SIMPLE)
[Parsed_ass_0 @ 000000000691ed00] Using font provider directwrite
[Parsed_ass_0 @ 000000000691ed00] Added subtitle file: 'input.ass' (7 styles, 1438 events)
[Parsed_ass_0 @ 000000000691ed00] fontselect: (SIMHEI, 700, 0) -> SimHei, 0, SimHei
[Parsed_ass_0 @ 000000000691ed00] fontselect: (SimHei, 700, 0) -> SimHei, 0, SimHei
[Parsed_ass_0 @ 000000000691ed00] fontselect: (FZXiaoZhuanTi-S13T, 700, 0) -> FZXZTFW--GB1-0, 0, FZXZTFW--GB1-0
   9.07 A-V: -0.030 fd=  11 aq=   32KB vq=  453KB sq=    0B f=0/0

jn_child
 
Posts: 4
Joined: Wed Nov 23, 2016 2:28 pm

Re: ffplay after 20161003 not support ass subtitle.

Postby jn_child » Fri Nov 25, 2016 12:53 am

-------------------------------------------------------------------------------------------------------
Win32 Version:

ffmpeg-20161006-0212867-win32-static version and before works with ass subtitle , can show video window.

After ffmpeg-20161007-c45ba26-win32-static version , can't show video window .
-------------------------------------------------------------------------------------------------------

-------------------------------------------------------------------------------------------------------
Win64 version:

ffmpeg-20161003-cced839-win64-static version and before work good,

but not display video window after ffmpeg-20161004-be1d324-win64-static version.
-------------------------------------------------------------------------------------------------------

-------------------------------------------------------------------------------------------------------
OS:Window 10 x64 version.
-------------------------------------------------------------------------------------------------------
jn_child
 
Posts: 4
Joined: Wed Nov 23, 2016 2:28 pm

Re: ffplay after 20161003 not support ass subtitle.

Postby llogan » Fri Nov 25, 2016 6:24 pm

I won't have access to a Windows machine until December 6. Unless someone else can suggest something you may have to ask at ffmpeg-user mailing list or #ffmpeg IRC channel. Or Zeranoe forum. Or some other site like Super User.
Get an answer more quickly by providing your actual ffmpeg command and the complete console output. Use the code button to format your command and output or your question will be ignored.
llogan
 
Posts: 2363
Joined: Fri Jan 25, 2013 9:47 pm
Location: Alaska


Return to ffplay

Who is online

Users browsing this forum: No registered users and 1 guest