Home/News | About | Download | Documentation | Forum | Bug Reports | Contact | Donations | Consulting | Projects | Legal | Security | FATE


This forum has not been maintained for a long time and will probably get deleted in the near future.
For faster responses to your questions, please use StackOverflow instead and tag your questions with "FFmpeg".
If you need a backup of the posts from this forum, please contact me directly.

IMX 30 Mov Aspect Ratio Issue

Discussions about problems encountered using ffmpeg.
Forum rules
FFmpeg is in a state of perpetual development and we do not currently have the person power to backport fixes to official releases. As such, if you wish to query or report a bug, you must try with the latest development branch revision of FFmpeg to confirm the issue still exists. The latest FFmpeg can be downloaded from here: http://www.ffmpeg.org/download.html

IMX 30 Mov Aspect Ratio Issue

Postby dinesh24 » Wed Nov 08, 2017 1:10 pm

We are using below ffmpeg command for imx 30 conversion. final output showing wrong aspect ratio (1.408) after conversion. we need aspect ration 4:3.

Code: Select all
C:\Users\iPlayout>D:\FFAStrans0.7.2_Win32-20170804T121108Z-001\FFAStrans0.7.2_Wi
n32\Processors\FFMpeg\ffmpegx64.exe -i D:\WPT_LIVE\WPT01.mp4 -s 720x608 -aspect
4:3 -vcodec mpeg2video -r 25 -pix_fmt yuv422p -minrate 30000k -maxrate 30000k -b
:v 30000k -bufsize 1200000 -rc_init_occupancy 1200000 -rc_buf_aggressivity 0.25
-intra -dc 10 -ps 1 -qmin 1 -qmax 3 -top 1 -flags +ildct+low_delay -vtag mx5p -v
bsf imxdump  -acodec pcm_s16le -ac 2 "D:\AAA\test11.mov"
ffmpeg version N-79143-g8ff0f6a Copyright (c) 2000-2016 the FFmpeg developers
  built with gcc 5.3.0 (GCC)
  configuration: --enable-gpl --enable-version3 --disable-w32threads --enable-av
isynth --enable-bzlib --enable-fontconfig --enable-frei0r --enable-gnutls --enab
le-iconv --enable-libass --enable-libbluray --enable-libbs2b --enable-libcaca --
enable-libdcadec --enable-libfreetype --enable-libgme --enable-libgsm --enable-l
ibilbc --enable-libmodplug --enable-libmfx --enable-libmp3lame --enable-libopenc
ore-amrnb --enable-libopencore-amrwb --enable-libopenjpeg --enable-libopus --ena
ble-librtmp --enable-libschroedinger --enable-libsnappy --enable-libsoxr --enabl
e-libspeex --enable-libtheora --enable-libtwolame --enable-libvidstab --enable-l
ibvo-amrwbenc --enable-libvorbis --enable-libvpx --enable-libwavpack --enable-li
bwebp --enable-libx264 --enable-libx265 --enable-libxavs --enable-libxvid --enab
le-libzimg --enable-lzma --enable-decklink --enable-zlib
  libavutil      55. 19.100 / 55. 19.100
  libavcodec     57. 30.100 / 57. 30.100
  libavformat    57. 29.101 / 57. 29.101
  libavdevice    57.  0.101 / 57.  0.101
  libavfilter     6. 40.102 /  6. 40.102
  libswscale      4.  0.100 /  4.  0.100
  libswresample   2.  0.101 /  2.  0.101
  libpostproc    54.  0.100 / 54.  0.100
[h264 @ 0000000001f24e80] Increasing reorder buffer to 1
Input #0, mov,mp4,m4a,3gp,3g2,mj2, from 'D:\WPT_LIVE\WPT01.mp4':
  Metadata:
    major_brand     : mp42
    minor_version   : 0
    compatible_brands: mp42mp41
    creation_time   : 2017-04-10 09:46:04
  Duration: 02:29:10.85, start: 0.000000, bitrate: 5163 kb/s
    Stream #0:0(eng): Video: h264 (Main) (avc1 / 0x31637661), yuv420p(tv, bt709)
, 1280x720, 4841 kb/s, 29.97 fps, 29.97 tbr, 30k tbn, 59.94 tbc (default)
    Metadata:
      creation_time   : 2017-04-10 09:46:04
      handler_name    : Alias Data Handler
      encoder         : AVC Coding
    Stream #0:1(eng): Audio: aac (LC) (mp4a / 0x6134706D), 48000 Hz, stereo, flt
p, 317 kb/s (default)
    Metadata:
      creation_time   : 2017-04-10 09:46:04
      handler_name    : Alias Data Handler
File 'D:\AAA\test11.mov' already exists. Overwrite ? [y/N] y
Output #0, mov, to 'D:\AAA\test11.mov':
  Metadata:
    major_brand     : mp42
    minor_version   : 0
    compatible_brands: mp42mp41
    encoder         : Lavf57.29.101
    Stream #0:0(eng): Video: mpeg2video (4:2:2) (mx5p / 0x7035786D), yuv422p, 72
0x608 [SAR 152:135 DAR 4:3], q=1-3, 30000 kb/s, 25 fps, 12800 tbn, 25 tbc (defau
lt)
    Metadata:
      creation_time   : 2017-04-10 09:46:04
      handler_name    : Alias Data Handler
      encoder         : Lavc57.30.100 mpeg2video
    Side data:
      cpb: bitrate max/min/avg: 30000000/30000000/30000000 buffer size: 1200000
vbv_delay: -1
    Stream #0:1(eng): Audio: pcm_s16le (sowt / 0x74776F73), 48000 Hz, stereo, s1
6, 1536 kb/s (default)
    Metadata:
      creation_time   : 2017-04-10 09:46:04
      handler_name    : Alias Data Handler
      encoder         : Lavc57.30.100 pcm_s16le
Stream mapping:
  Stream #0:0 -> #0:0 (h264 (native) -> mpeg2video (native))
  Stream #0:1 -> #0:1 (aac (native) -> pcm_s16le (native))
Press [q] to stop, [?] for help
Past duration 0.663322 too large
Past duration 0.829155 too large
Past duration 0.994987 too large
frame=  104 fps=0.0 q=1.6 size=   16012kB time=00:00:04.35 bitrate=30141.1kbits/
frame=  210 fps=209 q=1.6 size=   32334kB time=00:00:08.68 bitrate=30506.6kbits/
frame=  314 fps=209 q=1.6 size=   48350kB time=00:00:12.92 bitrate=30637.8kbits/
frame=  421 fps=210 q=1.6 size=   64830kB time=00:00:17.02 bitrate=31196.5kbits/
frame=  526 fps=210 q=1.6 size=   81001kB time=00:00:21.35 bitrate=31073.3kbits/
frame=  632 fps=210 q=1.6 size=   97327kB time=00:00:25.70 bitrate=31015.3kbits/
frame=  739 fps=210 q=1.6 size=  113802kB time=00:00:29.71 bitrate=31371.2kbits/
frame=  843 fps=210 q=1.6 size=  129819kB time=00:00:34.04 bitrate=31234.6kbits/
frame=  948 fps=210 q=1.6 size=  145990kB time=00:00:38.08 bitrate=31406.2kbits/
frame= 1052 fps=210 q=1.6 size=  162006kB time=00:00:42.38 bitrate=31308.7kbits/
frame= 1156 fps=209 q=1.6 size=  178023kB time=00:00:46.42 bitrate=31415.7kbits/
frame= 1261 fps=209 q=1.6 size=  194193kB time=00:00:50.73 bitrate=31358.4kbits/
frame= 1367 fps=209 q=1.6 size=  210519kB time=00:00:55.06 bitrate=31320.9kbits/
frame= 1471 fps=209 q=1.6 size=  226535kB time=00:00:59.07 bitrate=31415.5kbits/
frame= 1573 fps=209 q=1.6 size=  242243kB time=00:01:03.10 bitrate=31447.3kbits/
frame= 1677 fps=209 q=1.6 size=  258259kB time=00:01:07.41 bitrate=31383.4kbits/
frame= 1779 fps=209 q=1.6 size=  273966kB time=00:01:11.42 bitrate=31422.7kbits/
frame= 1884 fps=209 q=1.6 size=  290137kB time=00:01:15.75 bitrate=31375.0kbits/
frame= 1990 fps=209 q=1.6 size=  306463kB time=00:01:19.76 bitrate=31474.1kbits/
frame= 2094 fps=209 q=1.6 size=  322479kB time=00:01:24.09 bitrate=31413.5kbits/
frame= 2199 fps=209 q=1.6 size=  338650kB time=00:01:28.10 bitrate=31487.1kbits/
frame= 2303 fps=209 q=1.6 size=  354667kB time=00:01:32.43 bitrate=31431.3kbits/
frame= 2407 fps=208 q=1.6 size=  370683kB time=00:01:36.46 bitrate=31477.7kbits/
frame= 2510 fps=208 q=1.6 size=  386545kB time=00:01:40.77 bitrate=31421.1kbits/
frame= 2614 fps=208 q=1.6 size=  402561kB time=00:01:44.78 bitrate=31470.6kbits/
frame= 2719 fps=208 q=1.6 size=  418732kB time=00:01:49.12 bitrate=31435.6kbits/
frame= 2824 fps=208 q=1.6 size=  434903kB time=00:01:53.13 bitrate=31492.1kbits/
frame= 2928 fps=208 q=1.6 size=  450919kB time=00:01:57.46 bitrate=31448.1kbits/
frame= 3033 fps=208 q=1.6 size=  467086kB time=00:02:01.47 bitrate=31500.0kbits/
frame= 3137 fps=208 q=1.6 size=  483103kB time=00:02:05.80 bitrate=31458.6kbits/
frame= 3242 fps=208 q=1.6 size=  499274kB time=00:02:09.81 bitrate=31507.2kbits/
frame= 3345 fps=208 q=1.6 size=  515136kB time=00:02:14.14 bitrate=31458.7kbits/
frame= 3448 fps=208 q=1.6 size=  531002kB time=00:02:18.15 bitrate=31486.2kbits/
frame= 3550 fps=208 q=1.6 size=  546709kB time=00:02:22.20 bitrate=31493.6kbits/
frame= 3655 fps=208 q=1.6 size=  562880kB time=00:02:26.49 bitrate=31476.0kbits/
frame= 3757 fps=208 q=1.6 size=  578587kB time=00:02:30.48 bitrate=31496.7kbits/
frame= 3859 fps=208 q=1.6 size=  594295kB time=00:02:34.51 bitrate=31507.5kbits/
frame= 3962 fps=208 q=1.6 size=  610157kB time=00:02:38.82 bitrate=31470.8kbits/
frame= 4065 fps=208 q=1.6 size=  626018kB time=00:02:42.83 bitrate=31493.7kbits/
frame= 4168 fps=208 q=1.6 size=  641884kB time=00:02:46.84 bitrate=31515.6kbits/
frame= 4271 fps=208 q=1.6 size=  657746kB time=00:02:51.17 bitrate=31477.4kbits/
frame= 4376 fps=208 q=1.6 size=  673917kB time=00:02:55.18 bitrate=31512.9kbits/
frame= 4480 fps=208 q=1.6 size=  689934kB time=00:02:59.52 bitrate=31483.6kbits/
frame= 4584 fps=208 q=1.6 size=  705950kB time=00:03:03.53 bitrate=31510.5kbits/
frame= 4686 fps=208 q=1.6 size=  721657kB time=00:03:07.86 bitrate=31469.0kbits/
frame= 4789 fps=207 q=1.6 size=  737519kB time=00:03:11.87 bitrate=31488.5kbits/
frame= 4892 fps=207 q=1.6 size=  753381kB time=00:03:15.88 bitrate=31507.1kbits/
frame= 4993 fps=207 q=1.6 size=  768934kB time=00:03:19.89 bitrate=31512.3kbits/
frame= 5098 fps=207 q=1.6 size=  785105kB time=00:03:24.22 bitrate=31492.8kbits/
frame= 5201 fps=207 q=1.6 size=  800967kB time=00:03:28.21 bitrate=31513.4kbits/
frame= 5304 fps=207 q=1.6 size=  816833kB time=00:03:32.56 bitrate=31479.7kbits/
frame= 5407 fps=207 q=1.6 size=  832695kB time=00:03:36.55 bitrate=31499.8kbits/
frame= 5511 fps=207 q=1.6 size=  848711kB time=00:03:40.56 bitrate=31521.9kbits/
frame= 5615 fps=207 q=1.6 size=  864727kB time=00:03:44.89 bitrate=31498.3kbits/
frame= 5717 fps=207 q=1.6 size=  880435kB time=00:03:48.90 bitrate=31508.6kbits/
frame= 5819 fps=207 q=1.6 size=  896142kB time=00:03:52.93 bitrate=31515.6kbits/
frame= 5922 fps=207 q=1.6 size=  912004kB time=00:03:57.24 bitrate=31490.8kbits/
frame= 6025 fps=207 q=1.6 size=  927866kB time=00:04:01.25 bitrate=31505.9kbits/
frame= 6127 fps=207 q=1.6 size=  943577kB time=00:04:05.24 bitrate=31518.2kbits/
frame= 6230 fps=207 q=1.6 size=  959439kB time=00:04:09.60 bitrate=31489.3kbits/
frame= 6332 fps=207 q=1.6 size=  975147kB time=00:04:13.58 bitrate=31501.3kbits/
frame= 6434 fps=207 q=1.6 size=  990854kB time=00:04:17.60 bitrate=31510.4kbits/
frame= 6539 fps=207 q=1.6 size= 1007025kB time=00:04:21.93 bitrate=31495.2kbits/
frame= 6643 fps=207 q=1.6 size= 1023041kB time=00:04:25.94 bitrate=31513.6kbits/
frame= 6743 fps=207 q=1.6 size= 1038444kB time=00:04:29.95 bitrate=31512.8kbits/
frame= 6848 fps=207 q=1.6 size= 1054615kB time=00:04:34.28 bitrate=31498.2kbits/
frame= 6952 fps=207 q=1.6 size= 1070631kB time=00:04:38.29 bitrate=31515.7kbits/
frame= 7045 fps=206 q=1.6 size= 1084952kB time=00:04:41.96 bitrate=31521.6kbits/
frame= 7150 fps=207 q=1.6 size= 1101123kB time=00:04:46.29 bitrate=31507.5kbits/
frame= 7254 fps=207 q=1.6 size= 1117139kB time=00:04:50.32 bitrate=31521.9kbits/
frame= 7359 fps=207 q=1.6 size= 1133310kB time=00:04:54.63 bitrate=31510.5kbits/
frame= 7424 fps=206 q=1.6 size= 1143321kB time=00:04:57.30 bitrate=31503.7kbits/
frame= 7517 fps=205 q=1.6 size= 1157642kB time=00:05:00.97 bitrate=31509.4kbits/
frame= 7618 fps=205 q=1.6 size= 1173195kB time=00:05:04.98 bitrate=31512.8kbits/
frame= 7719 fps=205 q=1.6 size= 1188752kB time=00:05:08.99 bitrate=31516.2kbits/
frame= 7777 fps=204 q=1.6 size= 1197681kB time=00:05:11.31 bitrate=31515.8kbits/
frame= 7877 fps=204 q=1.6 size= 1213083kB time=00:05:15.32 bitrate=31515.1kbits/
frame= 7983 fps=204 q=1.6 size= 1229409kB time=00:05:19.65 bitrate=31506.5kbits/
frame= 8086 fps=204 q=1.6 size= 1245271kB time=00:05:23.66 bitrate=31517.5kbits/
frame= 8158 fps=203 q=1.6 size= 1256359kB time=00:05:26.67 bitrate=31505.4kbits/
frame= 8210 fps=202 q=1.6 size= 1264365kB time=00:05:28.66 bitrate=31514.7kbits/
frame= 8313 fps=202 q=1.6 size= 1280227kB time=00:05:32.67 bitrate=31525.4kbits/
frame= 8416 fps=202 q=1.6 size= 1296093kB time=00:05:37.00 bitrate=31506.0kbits/
frame= 8499 fps=201 q=1.6 size= 1308873kB time=00:05:40.35 bitrate=31503.5kbits/
frame= 8570 fps=201 q=1.6 size= 1319807kB time=00:05:43.01 bitrate=31519.7kbits/
frame= 8672 fps=201 q=1.6 size= 1335518kB time=00:05:47.05 bitrate=31524.4kbits/
frame= 8774 fps=201 q=1.6 size= 1351225kB time=00:05:51.36 bitrate=31504.0kbits/
frame= 8853 fps=200 q=1.6 size= 1363391kB time=00:05:54.36 bitrate=31517.8kbits/
frame= 8956 fps=200 q=1.6 size= 1379253kB time=00:05:58.37 bitrate=31527.7kbits/
frame= 9059 fps=200 q=1.6 size= 1395115kB time=00:06:02.70 bitrate=31509.5kbits/
frame= 9149 fps=200 q=1.6 size= 1408976kB time=00:06:06.37 bitrate=31503.8kbits/
frame= 9231 fps=200 q=1.6 size= 1421606kB time=00:06:09.40 bitrate=31525.6kbits/
frame= 9328 fps=200 q=1.6 size= 1436544kB time=00:06:13.37 bitrate=31518.3kbits/
frame= 9431 fps=200 q=1.6 size= 1452406kB time=00:06:17.55 bitrate=31513.4kbits/
frame= 9537 fps=200 q=1.6 size= 1468728kB time=00:06:21.71 bitrate=31520.2kbits/
frame= 9626 fps=200 q=1.6 size= 1482435kB time=00:06:25.38 bitrate=31511.5kbits/
frame= 9731 fps=200 q=1.6 size= 1498606kB time=00:06:29.39 bitrate=31527.1kbits/
frame= 9835 fps=200 q=1.6 size= 1514622kB time=00:06:33.72 bitrate=31513.6kbits/
frame= 9937 fps=200 q=1.6 size= 1530329kB time=00:06:37.73 bitrate=31519.3kbits/
frame= 9998 fps=199 q=1.6 size= 1539726kB time=00:06:40.08 bitrate=31526.9kbits/
frame=10096 fps=199 q=1.6 size= 1554819kB time=00:06:44.07 bitrate=31521.6kbits/
frame=10197 fps=199 q=1.6 size= 1570372kB time=00:06:48.08 bitrate=31524.0kbits/
frame=10300 fps=199 q=1.6 size= 1586234kB time=00:06:52.41 bitrate=31508.1kbits/
frame=10390 fps=199 q=1.6 size= 1600096kB time=00:06:55.78 bitrate=31525.7kbits/
frame=10495 fps=199 q=1.6 size= 1616267kB time=00:07:00.09 bitrate=31517.7kbits/
frame=10599 fps=199 q=1.6 size= 1632283kB time=00:07:04.10 bitrate=31529.0kbits/
frame=10705 fps=199 q=1.6 size= 1648604kB time=00:07:08.43 bitrate=31522.4kbits/
frame=10770 fps=199 q=1.6 size= 1658615kB time=00:07:11.10 bitrate=31517.6kbits/
frame=10821 fps=198 q=1.6 size= 1666471kB time=00:07:13.10 bitrate=31520.3kbits/
frame=10924 fps=198 q=1.6 size= 1682333kB time=00:07:17.14 bitrate=31526.8kbits/
frame=11029 fps=198 q=1.6 size= 1698504kB time=00:07:21.45 bitrate=31519.1kbits/
frame=11076 fps=197 q=1.6 size= 1705741kB time=00:07:23.45 bitrate=31510.3kbits/
frame=11141 fps=196 q=1.6 size= 1715752kB time=00:07:25.80 bitrate=31528.4kbits/
frame=11245 fps=197 q=1.6 size= 1731768kB time=00:07:30.13 bitrate=31516.5kbits/
frame=11349 fps=197 q=1.6 size= 1747785kB time=00:07:34.12 bitrate=31528.6kbits/
frame=11430 fps=196 q=1.6 size= 1760260kB time=00:07:37.47 bitrate=31521.2kbits/
frame=11533 fps=196 q=1.6 size= 1776122kB time=00:07:41.50 bitrate=31527.3kbits/
frame=11637 fps=196 q=1.6 size= 1792138kB time=00:07:45.81 bitrate=31517.3kbits/
frame=11736 fps=196 q=1.6 size= 1807386kB time=00:07:49.80 bitrate=31515.6kbits/
frame=11839 fps=197 q=1.6 size= 1823248kB time=00:07:53.81 bitrate=31523.1kbits/
frame=11942 fps=197 q=1.6 size= 1839110kB time=00:07:57.84 bitrate=31529.0kbits/
frame=12045 fps=197 q=1.6 size= 1854972kB time=00:08:02.15 bitrate=31516.7kbits/
frame=12148 fps=197 q=1.6 size= 1870833kB time=00:08:06.16 bitrate=31524.0kbits/
frame=12249 fps=197 q=1.6 size= 1886386kB time=00:08:10.15 bitrate=31527.3kbits/
frame=12353 fps=197 q=1.6 size= 1902403kB time=00:08:14.50 bitrate=31515.2kbits/
frame=12456 fps=197 q=1.6 size= 1918269kB time=00:08:18.49 bitrate=31523.7kbits/
frame=12559 fps=197 q=1.6 size= 1934131kB time=00:08:22.52 bitrate=31529.4kbits/
frame=12664 fps=197 q=1.6 size= 1950302kB time=00:08:26.83 bitrate=31522.7kbits/
frame=12767 fps=197 q=1.6 size= 1966163kB time=00:08:30.84 bitrate=31529.6kbits/
frame=12871 fps=197 q=1.6 size= 1982180kB time=00:08:35.20 bitrate=31517.9kbits/
frame=12975 fps=197 q=1.6 size= 1998196kB time=00:08:39.18 bitrate=31528.4kbits/
frame=13045 fps=197 q=1.6 size= 2008975kB time=00:08:42.19 bitrate=31515.9kbits/
frame=13151 fps=197 q=1.6 size= 2025301kB time=00:08:46.20 bitrate=31529.9kbits/
frame=13254 fps=197 q=1.6 size= 2041163kB time=00:08:50.53 bitrate=31517.4kbits/
frame=13343 fps=197 q=1.6 size= 2054870kB time=00:08:53.86 bitrate=31531.3kbits/
frame=13398 fps=196 q=1.6 size= 2063339kB time=00:08:56.21 bitrate=31522.7kbits/
frame=13494 fps=196 q=1.6 size= 2078124kB time=00:08:59.90 bitrate=31531.5kbits/
frame=13599 fps=196 q=1.6 size= 2094295kB time=00:09:04.21 bitrate=31525.3kbits/
frame=13700 fps=196 q=1.6 size= 2109848kB time=00:09:08.22 bitrate=31527.0kbits/
frame=13798 fps=196 q=1.6 size= 2124941kB time=00:09:12.23 bitrate=31522.0kbits/
frame=13896 fps=196 q=1.6 size= 2140034kB time=00:09:16.22 bitrate=31518.2kbits/
frame=14000 fps=196 q=1.6 size= 2156051kB time=00:09:20.23 bitrate=31526.7kbits/
frame=14100 fps=196 q=1.6 size= 2171449kB time=00:09:24.24 bitrate=31526.2kbits/
frame=14177 fps=196 q=1.6 size= 2183306kB time=00:09:27.23 bitrate=31531.4kbits/
frame=14278 fps=196 q=1.6 size= 2198863kB time=00:09:31.26 bitrate=31532.0kbits/
frame=14381 fps=196 q=1.6 size= 2214725kB time=00:09:35.57 bitrate=31521.7kbits/
frame=14482 fps=196 q=1.6 size= 2230278kB time=00:09:39.58 bitrate=31523.4kbits/
frame=14559 fps=196 q=1.6 size= 2242138kB time=00:09:42.59 bitrate=31527.4kbits/
frame=14661 fps=196 q=1.6 size= 2257846kB time=00:09:46.60 bitrate=31531.2kbits/
frame=14765 fps=196 q=1.6 size= 2273862kB time=00:09:50.93 bitrate=31522.1kbits/
frame=14856 fps=196 q=1.6 size= 2287878kB time=00:09:54.60 bitrate=31520.7kbits/
frame=14947 fps=196 q=1.6 size= 2301890kB time=00:09:58.27 bitrate=31519.2kbits/
frame=15052 fps=196 q=1.6 size= 2318061kB time=00:10:02.28 bitrate=31529.3kbits/
frame=15155 fps=196 q=1.6 size= 2333923kB time=00:10:06.61 bitrate=31518.4kbits/
frame=15257 fps=196 q=1.6 size= 2349630kB time=00:10:10.62 bitrate=31522.1kbits/
frame=15359 fps=196 q=1.6 size= 2365342kB time=00:10:14.61 bitrate=31526.9kbits/
frame=15462 fps=196 q=1.6 size= 2381203kB time=00:10:18.62 bitrate=31532.6kbits/
frame=15566 fps=196 q=1.6 size= 2397220kB time=00:10:22.95 bitrate=31524.0kbits/
frame=15671 fps=196 q=1.6 size= 2413391kB time=00:10:26.98 bitrate=31532.6kbits/
frame=15768 fps=196 q=1.6 size= 2428330kB time=00:10:30.97 bitrate=31527.2kbits/
frame=15871 fps=196 q=1.6 size= 2444192kB time=00:10:34.96 bitrate=31533.7kbits/
frame=15974 fps=196 q=1.6 size= 2460053kB time=00:10:39.31 bitrate=31522.3kbits/
frame=16074 fps=196 q=1.6 size= 2475452kB time=00:10:43.30 bitrate=31522.9kbits/
frame=16169 fps=196 q=1.6 size= 2490082kB time=00:10:46.99 bitrate=31528.3kbits/
frame=16271 fps=196 q=1.6 size= 2505793kB time=00:10:51.00 bitrate=31531.8kbits/
frame=16377 fps=197 q=1.6 size= 2522115kB time=00:10:55.33 bitrate=31527.5kbits/
frame=16478 fps=197 q=1.6 size= 2537671kB time=00:10:59.32 bitrate=31530.0kbits/
frame=16580 fps=197 q=1.6 size= 2553379kB time=00:11:03.36 bitrate=31532.3kbits/
frame=16683 fps=197 q=1.6 size= 2569241kB time=00:11:07.66 bitrate=31523.4kbits/
frame=16787 fps=197 q=1.6 size= 2585257kB time=00:11:11.68 bitrate=31530.5kbits/
frame=16889 fps=197 q=1.6 size= 2600965kB time=00:11:15.69 bitrate=31533.8kbits/
frame=16979 fps=197 q=1.6 size= 2614826kB time=00:11:19.36 bitrate=31530.6kbits/
frame=17084 fps=197 q=1.6 size= 2630997kB time=00:11:23.69 bitrate=31524.7kbits/
frame=17189 fps=197 q=1.6 size= 2647168kB time=00:11:27.70 bitrate=31533.5kbits/
frame=17289 fps=197 q=1.6 size= 2662566kB time=00:11:31.69 bitrate=31534.0kbits/
frame=17391 fps=197 q=1.6 size= 2678277kB time=00:11:36.04 bitrate=31521.7kbits/
frame=17492 fps=197 q=1.6 size= 2693830kB time=00:11:40.03 bitrate=31524.1kbits/
frame=17596 fps=197 q=1.6 size= 2709847kB time=00:11:44.04 bitrate=31530.9kbits/
frame=17698 fps=197 q=1.6 size= 2725554kB time=00:11:48.05 bitrate=31534.0kbits/
frame=17803 fps=197 q=1.6 size= 2741725kB time=00:11:52.38 bitrate=31528.2kbits/
frame=17906 fps=197 q=1.6 size= 2757587kB time=00:11:56.39 bitrate=31533.1kbits/
frame=18011 fps=197 q=1.6 size= 2773758kB time=00:12:00.72 bitrate=31527.4kbits/
frame=18116 fps=197 q=1.6 size= 2789929kB time=00:12:05.05 bitrate=31521.8kbits/
frame=18222 fps=197 q=1.6 size= 2806254kB time=00:12:09.06 bitrate=31531.9kbits/
frame=18325 fps=197 q=1.6 size= 2822116kB time=00:12:13.39 bitrate=31522.9kbits/
frame=18430 fps=197 q=1.6 size= 2838287kB time=00:12:17.40 bitrate=31531.0kbits/
frame=18534 fps=198 q=1.6 size= 2854303kB time=00:12:21.73 bitrate=31523.8kbits/
frame=18634 fps=198 q=1.6 size= 2869702kB time=00:12:25.74 bitrate=31523.5kbits/
frame=18737 fps=198 q=1.6 size= 2885564kB time=00:12:29.76 bitrate=31528.1kbits/
frame=18840 fps=198 q=1.6 size= 2901430kB time=00:12:33.74 bitrate=31533.7kbits/
frame=18936 fps=198 q=1.6 size= 2916214kB time=00:12:37.76 bitrate=31526.6kbits/
frame=19039 fps=198 q=1.6 size= 2932076kB time=00:12:41.77 bitrate=31531.2kbits/
frame=19144 fps=198 q=1.6 size= 2948247kB time=00:12:46.10 bitrate=31525.9kbits/
frame=19247 fps=198 q=1.6 size= 2964109kB time=00:12:50.11 bitrate=31530.5kbits/
frame=19348 fps=198 q=1.6 size= 2979662kB time=00:12:54.12 bitrate=31531.7kbits/
frame=19439 fps=198 q=1.6 size= 2993677kB time=00:12:57.79 bitrate=31530.5kbits/
frame=19541 fps=198 q=1.6 size= 3009385kB time=00:13:01.80 bitrate=31533.4kbits/
frame=19645 fps=198 q=1.6 size= 3025401kB time=00:13:06.13 bitrate=31526.6kbits/
frame=19733 fps=198 q=1.6 size= 3038954kB time=00:13:09.46 bitrate=31534.3kbits/
frame=19796 fps=197 q=1.6 size= 3048655kB time=00:13:12.12 bitrate=31528.5kbits/
frame=19897 fps=197 q=1.6 size= 3064208kB time=00:13:16.13 bitrate=31529.7kbits/
frame=20000 fps=197 q=1.6 size= 3080074kB time=00:13:20.17 bitrate=31533.2kbits/
frame=20106 fps=197 q=1.6 size= 3096396kB time=00:13:24.48 bitrate=31530.5kbits/
frame=20192 fps=197 q=1.6 size= 3109643kB time=00:13:27.80 bitrate=31535.0kbits/
frame=20294 fps=197 q=1.6 size= 3125350kB time=00:13:32.16 bitrate=31524.4kbits/
frame=20399 fps=197 q=1.6 size= 3141521kB time=00:13:36.14 bitrate=31532.6kbits/
frame=20471 fps=197 q=1.6 size= 3152610kB time=00:13:39.15 bitrate=31527.7kbits/
frame=20567 fps=197 q=1.6 size= 3167394kB time=00:13:42.84 bitrate=31533.5kbits/
frame=20671 fps=197 q=1.6 size= 3183410kB time=00:13:47.15 bitrate=31527.9kbits/
frame=20775 fps=197 q=1.6 size= 3199427kB time=00:13:51.16 bitrate=31533.6kbits/
frame=20857 fps=197 q=1.6 size= 3212052kB time=00:13:54.51 bitrate=31531.0kbits/
frame=20937 fps=197 q=1.6 size= 3224372kB time=00:13:57.84 bitrate=31526.2kbits/
frame=21041 fps=197 q=1.6 size= 3240389kB time=00:14:01.85 bitrate=31531.8kbits/
frame=21143 fps=197 q=1.6 size= 3256100kB time=00:14:05.86 bitrate=31534.5kbits/
frame=21154 fps=197 q=1.6 Lsize= 3258096kB time=00:14:06.52 bitrate=31529.2kbits
/s dup=0 drop=4203 speed=7.88x
video:3099144kB audio:158724kB subtitle:0kB other streams:0kB global headers:0kB
 muxing overhead: 0.007014%
Exiting normally, received signal 2.
Attachments
Imx 30.PNG
Imx 30.PNG (61.82 KiB) Viewed 42 times
dinesh24
 
Posts: 52
Joined: Fri May 06, 2016 4:26 pm

Return to ffmpeg

Who is online

Users browsing this forum: Bing [Bot] and 5 guests