Home/News | About | Download | Documentation | Forum | Bug Reports | Contact | Donations | Consulting | Projects | Legal | Security | FATE


This forum has not been maintained for a long time and will probably get deleted in the near future.
For faster responses to your questions, please use StackOverflow instead and tag your questions with "FFmpeg".
If you need a backup of the posts from this forum, please contact me directly.

IMX 30 Mov Issue

Discussions about problems encountered using ffmpeg.
Forum rules
FFmpeg is in a state of perpetual development and we do not currently have the person power to backport fixes to official releases. As such, if you wish to query or report a bug, you must try with the latest development branch revision of FFmpeg to confirm the issue still exists. The latest FFmpeg can be downloaded from here: http://www.ffmpeg.org/download.html

IMX 30 Mov Issue

Postby dinesh24 » Fri Oct 06, 2017 7:29 am

Hello,

We used below command to create IMX 30 Mov using FFMPEG. command is working fine. out put is not playing any media player showing error that m2v1 format is not decoded. i think their might be issue with command. i need to insert some extra parameter in command. please help me to sort out the error.

Code: Select all
C:\Users\iPlayout>C:\Users\iPlayout\Downloads\FFAStrans0.8.2\Processors\ffmpeg\x
86\ffmpeg.exe -i "D:\AAA\SD\TVC.mov" -s 720x576 -aspect 4:3 -vcodec mpeg2video -
r 25 -pix_fmt yuv422p -minrate 30000k -maxrate 30000k -b 30000k -bufsize 1200000
  -rc_init_occupancy 1200000 -rc_buf_aggressivity 0.25 -intra -dc 10 -ps 1 -qmin
 1 -qmax 3 -top 1 -acodec pcm_s16le -ac 2 "D:\AAA\test11.mov"


Thanks
Dinesh
dinesh24
 
Posts: 51
Joined: Fri May 06, 2016 4:26 pm

Re: IMX 30 Mov Issue

Postby dinesh24 » Sat Oct 07, 2017 11:16 am

Please help on this issue....
dinesh24
 
Posts: 51
Joined: Fri May 06, 2016 4:26 pm

Re: IMX 30 Mov Issue

Postby llogan » Sat Oct 07, 2017 5:43 pm

As usual, when asking for help with command line usage, please show your ffmpeg command line and the complete console output.

What players are you testing?
Get an answer more quickly by providing your actual ffmpeg command and the complete console output. Use the code button to format your command and output or your question will be ignored.
llogan
 
Posts: 2360
Joined: Fri Jan 25, 2013 9:47 pm
Location: Alaska

Re: IMX 30 Mov Issue

Postby dinesh24 » Mon Oct 09, 2017 6:01 am

Hello,

Please find below complete console output. we are using vlc media player.

Code: Select all
C:\Users\iPlayout>C:\Users\iPlayout\Downloads\FFAStrans0.8.2\Processors\ffmpeg\x
86\ffmpeg.exe -i "D:\AAA\SD\TVC.mov" -s 720x576 -aspect 4:3 -vcodec mpeg2video -
r 25 -pix_fmt yuv422p -minrate 30000k -maxrate 30000k -b:v 30000k -bufsize 12000
00 -rc_init_occupancy 1200000 -rc_buf_aggressivity 0.25 -intra -dc 10 -ps 1 -qmi
n 1 -qmax 3 -top 1 -acodec pcm_s16le -ac 2 "D:\AAA\test11.mov"
ffmpeg version 3.3.3 Copyright (c) 2000-2017 the FFmpeg developers
  built with gcc 7.1.0 (GCC)
  configuration: --disable-static --enable-shared --enable-gpl --enable-version3
 --enable-cuda --enable-cuvid --enable-d3d11va --enable-dxva2 --enable-libmfx --
enable-nvenc --enable-avisynth --enable-bzlib --enable-fontconfig --enable-frei0
r --enable-gnutls --enable-iconv --enable-libass --enable-libbluray --enable-lib
bs2b --enable-libcaca --enable-libfreetype --enable-libgme --enable-libgsm --ena
ble-libilbc --enable-libmodplug --enable-libmp3lame --enable-libopencore-amrnb -
-enable-libopencore-amrwb --enable-libopenh264 --enable-libopenjpeg --enable-lib
opus --enable-librtmp --enable-libsnappy --enable-libsoxr --enable-libspeex --en
able-libtheora --enable-libtwolame --enable-libvidstab --enable-libvo-amrwbenc -
-enable-libvorbis --enable-libvpx --enable-libwavpack --enable-libwebp --enable-
libx264 --enable-libx265 --enable-libxavs --enable-libxvid --enable-libzimg --en
able-lzma --enable-zlib
  libavutil      55. 58.100 / 55. 58.100
  libavcodec     57. 89.100 / 57. 89.100
  libavformat    57. 71.100 / 57. 71.100
  libavdevice    57.  6.100 / 57.  6.100
  libavfilter     6. 82.100 /  6. 82.100
  libswscale      4.  6.100 /  4.  6.100
  libswresample   2.  7.100 /  2.  7.100
  libpostproc    54.  5.100 / 54.  5.100
Input #0, mov,mp4,m4a,3gp,3g2,mj2, from 'D:\AAA\SD\TVC.mov':
  Metadata:
    major_brand     : qt
    minor_version   : 537199360
    compatible_brands: qt
    creation_time   : 2016-07-01T06:32:41.000000Z
  Duration: 00:00:45.00, start: 0.000000, bitrate: 51610 kb/s
    Stream #0:0(eng): Audio: pcm_s16le (sowt / 0x74776F73), 48000 Hz, stereo, s1
6, 1536 kb/s (default)
    Metadata:
      creation_time   : 2016-07-01T06:32:41.000000Z
      handler_name    : Apple Alias Data Handler
    Stream #0:1(eng): Video: mpeg2video (4:2:2) (mx5p / 0x7035786D), yuv422p(tv,
 smpte170m/bt470bg/bt709, top coded first (swapped)), 720x608 [SAR 152:135 DAR 4
:3], 50073 kb/s, SAR 59:54 DAR 295:228, 25 fps, 25 tbr, 2500 tbn, 50 tbc (defaul
t)
    Metadata:
      creation_time   : 2016-07-01T06:32:41.000000Z
      handler_name    : Apple Alias Data Handler
      encoder         : MPEG IMX 625/50 (50 Mb/s)
File 'D:\AAA\test11.mov' already exists. Overwrite ? [y/N] y
Stream mapping:
  Stream #0:1 -> #0:0 (mpeg2video (native) -> mpeg2video (native))
  Stream #0:0 -> #0:1 (pcm_s16le (native) -> pcm_s16le (native))
Press [q] to stop, [?] for help
Output #0, mov, to 'D:\AAA\test11.mov':
  Metadata:
    major_brand     : qt
    minor_version   : 537199360
    compatible_brands: qt
    encoder         : Lavf57.71.100
    Stream #0:0(eng): Video: mpeg2video (4:2:2) (m2v1 / 0x3176326D), yuv422p, 72
0x576 [SAR 16:15 DAR 4:3], q=1-3, 30000 kb/s, 25 fps, 12800 tbn, 25 tbc (default
)
    Metadata:
      creation_time   : 2016-07-01T06:32:41.000000Z
      handler_name    : Apple Alias Data Handler
      encoder         : Lavc57.89.100 mpeg2video
    Side data:
      cpb: bitrate max/min/avg: 30000000/30000000/30000000 buffer size: 1200000
vbv_delay: -1
    Stream #0:1(eng): Audio: pcm_s16le (sowt / 0x74776F73), 48000 Hz, stereo, s1
6, 1536 kb/s (default)
    Metadata:
      creation_time   : 2016-07-01T06:32:41.000000Z
      handler_name    : Apple Alias Data Handler
      encoder         : Lavc57.89.100 pcm_s16le
frame=  106 fps=0.0 q=1.6 size=   16155kB time=00:00:05.23 bitrate=25281.6kbits/
frame=  218 fps=212 q=1.6 size=   33401kB time=00:00:09.71 bitrate=28169.5kbits/
frame=  328 fps=212 q=1.6 size=   50338kB time=00:00:14.10 bitrate=29232.2kbits/
frame=  441 fps=214 q=1.6 size=   67738kB time=00:00:18.62 bitrate=29789.2kbits/
frame=  554 fps=215 q=1.6 size=   85139kB time=00:00:23.14 bitrate=30128.6kbits/
frame=  667 fps=216 q=1.6 size=  102539kB time=00:00:27.67 bitrate=30357.2kbits/
frame=  780 fps=216 q=1.6 size=  119940kB time=00:00:32.19 bitrate=30521.5kbits/
frame=  894 fps=217 q=1.6 size=  137495kB time=00:00:36.75 bitrate=30644.2kbits/
frame= 1006 fps=217 q=1.6 size=  154741kB time=00:00:41.23 bitrate=30742.0kbits/
frame= 1119 fps=217 q=1.6 size=  172141kB time=00:00:45.00 bitrate=31337.4kbits/
frame= 1125 fps=217 q=1.6 Lsize=  173247kB time=00:00:45.00 bitrate=31538.6kbits
/s speed=8.69x
video:164795kB audio:8438kB subtitle:0kB other streams:0kB global headers:0kB mu
xing overhead: 0.008252%


Please find attached screen shot of error...



Thanks
Dinesh
Attachments
Capture.PNG
Capture.PNG (15.7 KiB) Viewed 47 times
dinesh24
 
Posts: 51
Joined: Fri May 06, 2016 4:26 pm

Re: IMX 30 Mov Issue

Postby llogan » Mon Oct 09, 2017 9:13 pm

Possibly a VLC issue. Try asking at forum.videolan.org. Simple test case:
Code: Select all
ffmpeg -f lavfi -i testsrc=d=3 -c:v mpeg2video out.mov
Get an answer more quickly by providing your actual ffmpeg command and the complete console output. Use the code button to format your command and output or your question will be ignored.
llogan
 
Posts: 2360
Joined: Fri Jan 25, 2013 9:47 pm
Location: Alaska


Return to ffmpeg

Who is online

Users browsing this forum: No registered users and 7 guests