Home/News | About | Download | Documentation | Forum | Bug Reports | Contact | Donations | Consulting | Projects | Legal | Security | FATE


This forum has not been maintained for a long time and will probably get deleted in the near future.
For faster responses to your questions, please use StackOverflow instead and tag your questions with "FFmpeg".
If you need a backup of the posts from this forum, please contact me directly.

Data stream extracting

Discussions about problems encountered using ffmpeg.
Forum rules
FFmpeg is in a state of perpetual development and we do not currently have the person power to backport fixes to official releases. As such, if you wish to query or report a bug, you must try with the latest development branch revision of FFmpeg to confirm the issue still exists. The latest FFmpeg can be downloaded from here: http://www.ffmpeg.org/download.html

Data stream extracting

Postby gumiszu » Tue Aug 22, 2017 11:10 am

Hello,

I try to exctract/save a data stream (XML) from an IP camera.

Input #0, rtsp, from 'rtsp://172.30.10.227/axis-media/media.amp?event=on':
Metadata:
title : Media Presentation
Duration: N/A, start: 0.120000, bitrate: N/A
Stream #0:0: Video: h264 (Baseline), yuvj420p(pc, bt709, progressive), 1280x720 [SAR 1:1 DAR 16:9], 25 tbr, 90k tbn, 180k tbc
Stream #0:1: Audio: aac (LC), 16000 Hz, mono, fltp
Stream #0:2: Data: none
Unsupported codec with id 0 for input stream 2

How can I put it on file or console output? I need the Stream #0:2 Data ....
thx
I
gumiszu
 
Posts: 1
Joined: Tue Aug 22, 2017 10:41 am

Return to ffmpeg

Who is online

Users browsing this forum: Baidu [Spider], Bing [Bot], Google [Bot] and 2 guests