Home/News | About | Download | Documentation | Forum | Bug Reports | Contact | Donations | Consulting | Projects | Legal | Security | FATE


This forum has not been maintained for a long time and will probably get deleted in the near future.
For faster responses to your questions, please use StackOverflow instead and tag your questions with "FFmpeg".
If you need a backup of the posts from this forum, please contact me directly.

Avoid frame rate rounding with x264?

Discussions about problems encountered using ffmpeg.
Forum rules
FFmpeg is in a state of perpetual development and we do not currently have the person power to backport fixes to official releases. As such, if you wish to query or report a bug, you must try with the latest development branch revision of FFmpeg to confirm the issue still exists. The latest FFmpeg can be downloaded from here: http://www.ffmpeg.org/download.html

Avoid frame rate rounding with x264?

Postby HDL » Sun Mar 26, 2017 12:19 pm

I am recording videos at nonstandard rates to match their sources. For instance, I record at 60.0988 (ffprobe reports it as 60.10). When I encode with x264 it will just be a flat 60. Using ffv1 will preserve the proper rate. Is there any way to prevent x264 from rounding?

Code: Select all
HDLs-MacBook-Pro:~ HDL$ ffmpeg -t 20 -i "/Users/HDL/Desktop/Main/Speed Running/Magical Pop'n/ILs/Stage3--4-40-18.nut" -c:v libx264rgb -preset veryslow -crf 0 -sws_flags neighbor -vf scale=1024:896,"pad=1920:1080:(ow-iw)/2:(oh-ih)/2" -c:a copy /Users/HDL/Desktop/Stage3--4-40-18.nut
ffmpeg version N-84005-g3ba7b47-tessus Copyright (c) 2000-2017 the FFmpeg developers
  built with Apple LLVM version 8.0.0 (clang-800.0.42.1)
  configuration: --cc=/usr/bin/clang --prefix=/opt/ffmpeg --extra-version=tessus --enable-avisynth --enable-fontconfig --enable-gpl --enable-libass --enable-libbluray --enable-libfreetype --enable-libgsm --enable-libmodplug --enable-libmp3lame --enable-libopencore-amrnb --enable-libopencore-amrwb --enable-libopus --enable-libschroedinger --enable-libsnappy --enable-libsoxr --enable-libspeex --enable-libtheora --enable-libvidstab --enable-libvo-amrwbenc --enable-libvorbis --enable-libvpx --enable-libwavpack --enable-libx264 --enable-libx265 --enable-libxavs --enable-libxvid --enable-libzmq --enable-libzvbi --enable-version3 --disable-ffplay --disable-indev=qtkit --disable-indev=x11grab_xcb
  libavutil      55. 48.100 / 55. 48.100
  libavcodec     57. 83.100 / 57. 83.100
  libavformat    57. 66.104 / 57. 66.104
  libavdevice    57.  3.100 / 57.  3.100
  libavfilter     6. 76.100 /  6. 76.100
  libswscale      4.  3.101 /  4.  3.101
  libswresample   2.  4.100 /  2.  4.100
  libpostproc    54.  2.100 / 54.  2.100
Guessed Channel Layout for Input Stream #0.1 : stereo
Input #0, nut, from '/Users/HDL/Desktop/Main/Speed Running/Magical Pop'n/ILs/Stage3--4-40-18.nut':
  Metadata:
    major_brand     : qt 
    minor_version   : 537199360
    compatible_brands: qt 
    encoder         : Lavf57.66.104
  Duration: 00:04:58.93, start: 0.000000, bitrate: 36187 kb/s
    Stream #0:0(eng): Video: ffv1 (FFV1 / 0x31564646), bgra, 256x224, 60.10 tbr, 60.10 tbn, 60.10 tbc (default)
    Metadata:
      creation_time   : 2017-03-26T02:26:24.000000Z
      handler_name    : Apple Alias Data Handler
      encoder         : Lavc57.83.100 ffv1
    Stream #0:1(eng): Audio: pcm_s16be ([16]DSP / 0x50534410), 48000 Hz, stereo, s16, 1536 kb/s (default)
    Metadata:
      creation_time   : 2017-03-26T02:26:24.000000Z
      handler_name    : Apple Alias Data Handler
Stream mapping:
  Stream #0:0 -> #0:0 (ffv1 (native) -> h264 (libx264rgb))
  Stream #0:1 -> #0:1 (copy)
Press [q] to stop, [?] for help
No pixel format specified, rgb24 for H.264 encoding chosen.
Use -pix_fmt yuv420p for compatibility with outdated media players.
[libx264rgb @ 0x7fc0bc015000] using cpu capabilities: MMX2 SSE2Fast SSSE3 SSE4.2 AVX
[libx264rgb @ 0x7fc0bc015000] profile High 4:4:4 Predictive, level 5.1, 4:4:4 8-bit
[libx264rgb @ 0x7fc0bc015000] 64 - core 148 - H.264/MPEG-4 AVC codec - Copyleft 2003-2016 - http://www.videolan.org/x264.html - options: cabac=1 ref=16 deblock=1:0:0 analyse=0x1:0x131 me=umh subme=9 psy=0 mixed_ref=1 me_range=24 chroma_me=1 trellis=0 8x8dct=1 cqm=0 deadzone=21,11 fast_pskip=0 chroma_qp_offset=0 threads=12 lookahead_threads=1 sliced_threads=0 nr=0 decimate=1 interlaced=0 bluray_compat=0 constrained_intra=0 bframes=0 weightp=2 keyint=250 keyint_min=25 scenecut=40 intra_refresh=0 rc=cqp mbtree=0 qp=0
Output #0, nut, to '/Users/HDL/Desktop/Stage3--4-40-18.nut':
  Metadata:
    major_brand     : qt 
    minor_version   : 537199360
    compatible_brands: qt 
    encoder         : Lavf57.66.104
    Stream #0:0: Video: h264 (libx264rgb) (H264 / 0x34363248), rgb24, 1920x1080, q=-1--1, 60.10 fps, 60.10 tbn, 60.10 tbc (default)
    Metadata:
      creation_time   : 2017-03-26T02:26:24.000000Z
      X-Language      : eng
      handler_name    : Apple Alias Data Handler
      encoder         : Lavc57.83.100 libx264rgb
    Side data:
      cpb: bitrate max/min/avg: 0/0/0 buffer size: 0 vbv_delay: -1
    Stream #0:1: Audio: pcm_s16be ([16]DSP / 0x50534410), 48000 Hz, stereo, s16, 1536 kb/s (default)
    Metadata:
      creation_time   : 2017-03-26T02:26:24.000000Z
      X-Language      : eng
      handler_name    : Apple Alias Data Handler
frame=   24 fps=0.0 q=0.0 size=      47kB time=00:00:00.56 bitrate= 677.6kbits/sframe=   37 fps= 35 q=0.0 size=      88kB time=00:00:00.77 bitrate= 925.1kbits/sframe=   51 fps= 32 q=0.0 size=     131kB time=00:00:01.00 bitrate=1069.0kbits/sframe=   65 fps= 31 q=0.0 size=     176kB time=00:00:01.23 bitrate=1165.7kbits/sframe=   78 fps= 30 q=0.0 size=     219kB time=00:00:01.45 bitrate=1238.8kbits/sframe=   94 fps= 30 q=0.0 size=     269kB time=00:00:01.69 bitrate=1299.2kbits/sframe=  108 fps= 30 q=0.0 size=     316kB time=00:00:01.92 bitrate=1340.7kbits/sframe=  121 fps= 28 q=0.0 size=     357kB time=00:00:02.17 bitrate=1345.3kbits/sframe=  143 fps= 30 q=0.0 size=     501kB time=00:00:02.54 bitrate=1613.7kbits/sframe=  156 fps= 30 q=0.0 size=     542kB time=00:00:02.75 bitrate=1611.1kbits/sframe=  167 fps= 29 q=0.0 size=     577kB time=00:00:02.92 bitrate=1614.3kbits/sframe=  176 fps= 28 q=0.0 size=     664kB time=00:00:03.08 bitrate=1761.4kbits/sframe=  186 fps= 27 q=0.0 size=     901kB time=00:00:03.25 bitrate=2265.2kbits/sframe=  197 fps= 27 q=0.0 size=     955kB time=00:00:03.43 bitrate=2278.7kbits/sframe=  210 fps= 27 q=0.0 size=     996kB time=00:00:03.64 bitrate=2237.9kbits/sframe=  223 fps= 27 q=0.0 size=    1039kB time=00:00:03.87 bitrate=2198.3kbits/sframe=  239 fps= 27 q=0.0 size=    1088kB time=00:00:04.10 bitrate=2171.2kbits/sframe=  252 fps= 27 q=0.0 size=    1131kB time=00:00:04.34 bitrate=2130.2kbits/sframe=  266 fps= 27 q=0.0 size=    1176kB time=00:00:04.58 bitrate=2102.0kbits/sframe=  280 fps= 27 q=0.0 size=    1219kB time=00:00:04.81 bitrate=2072.7kbits/sframe=  293 fps= 27 q=0.0 size=    1264kB time=00:00:05.04 bitrate=2054.5kbits/sframe=  306 fps= 27 q=0.0 size=    1303kB time=00:00:05.25 bitrate=2031.7kbits/sframe=  320 fps= 27 q=0.0 size=    1348kB time=00:00:05.47 bitrate=2016.8kbits/sframe=  334 fps= 27 q=0.0 size=    1395kB time=00:00:05.71 bitrate=2001.3kbits/sframe=  348 fps= 27 q=0.0 size=    1441kB time=00:00:05.95 bitrate=1982.9kbits/sframe=  360 fps= 26 q=0.0 size=    1479kB time=00:00:06.12 bitrate=1978.5kbits/sframe=  368 fps= 26 q=0.0 size=    1503kB time=00:00:06.28 bitrate=1960.7kbits/sframe=  380 fps= 25 q=0.0 size=    2052kB time=00:00:06.47 bitrate=2597.5kbits/sframe=  389 fps= 25 q=0.0 size=    2215kB time=00:00:06.60 bitrate=2749.1kbits/sframe=  392 fps= 24 q=0.0 size=    2276kB time=00:00:06.68 bitrate=2788.4kbits/sframe=  399 fps= 24 q=0.0 size=    2390kB time=00:00:06.80 bitrate=2878.8kbits/sframe=  404 fps= 23 q=0.0 size=    2483kB time=00:00:06.88 bitrate=2953.5kbits/sframe=  410 fps= 22 q=0.0 size=    2575kB time=00:00:06.97 bitrate=3025.5kbits/sframe=  416 fps= 22 q=0.0 size=    2675kB time=00:00:07.07 bitrate=3095.8kbits/sframe=  424 fps= 22 q=0.0 size=    2809kB time=00:00:07.18 bitrate=3202.6kbits/sframe=  428 fps= 21 q=0.0 size=    2888kB time=00:00:07.28 bitrate=3249.3kbits/sframe=  435 fps= 21 q=0.0 size=    3000kB time=00:00:07.36 bitrate=3336.0kbits/sframe=  440 fps= 21 q=0.0 size=    3083kB time=00:00:07.47 bitrate=3379.5kbits/sframe=  446 fps= 21 q=0.0 size=    3180kB time=00:00:07.57 bitrate=3437.3kbits/sframe=  452 fps= 20 q=0.0 size=    3278kB time=00:00:07.68 bitrate=3493.4kbits/sframe=  459 fps= 20 q=0.0 size=    3396kB time=00:00:07.80 bitrate=3566.1kbits/sframe=  465 fps= 20 q=0.0 size=    3499kB time=00:00:07.86 bitrate=3643.6kbits/sframe=  471 fps= 20 q=0.0 size=    3598kB time=00:00:07.99 bitrate=3687.3kbits/sframe=  476 fps= 19 q=0.0 size=    3688kB time=00:00:08.07 bitrate=3739.5kbits/sframe=  482 fps= 19 q=0.0 size=    3781kB time=00:00:08.17 bitrate=3791.1kbits/sframe=  488 fps= 19 q=0.0 size=    3901kB time=00:00:08.27 bitrate=3861.3kbits/sframe=  494 fps= 19 q=0.0 size=    4020kB time=00:00:08.38 bitrate=3928.6kbits/sframe=  500 fps= 18 q=0.0 size=    4155kB time=00:00:08.46 bitrate=4019.0kbits/sframe=  506 fps= 18 q=0.0 size=    4308kB time=00:00:08.57 bitrate=4115.4kbits/sframe=  512 fps= 18 q=0.0 size=    4435kB time=00:00:08.67 bitrate=4190.5kbits/sframe=  518 fps= 17 q=0.0 size=    4570kB time=00:00:08.77 bitrate=4265.7kbits/sframe=  524 fps= 17 q=0.0 size=    4715kB time=00:00:08.88 bitrate=4347.7kbits/sframe=  530 fps= 17 q=0.0 size=    4856kB time=00:00:08.96 bitrate=4435.4kbits/sframe=  536 fps= 17 q=0.0 size=    4981kB time=00:00:09.07 bitrate=4495.9kbits/sframe=  542 fps= 17 q=0.0 size=    5101kB time=00:00:09.17 bitrate=4556.8kbits/sframe=  548 fps= 16 q=0.0 size=    5235kB time=00:00:09.27 bitrate=4622.7kbits/sframe=  554 fps= 16 q=0.0 size=    5377kB time=00:00:09.38 bitrate=4694.7kbits/sframe=  560 fps= 16 q=0.0 size=    5515kB time=00:00:09.46 bitrate=4771.1kbits/sframe=  566 fps= 16 q=0.0 size=    5647kB time=00:00:09.57 bitrate=4831.2kbits/sframe=  572 fps= 16 q=0.0 size=    5775kB time=00:00:09.67 bitrate=4892.1kbits/sframe=  578 fps= 16 q=0.0 size=    5905kB time=00:00:09.77 bitrate=4947.8kbits/sframe=  585 fps= 15 q=0.0 size=    6058kB time=00:00:09.86 bitrate=5032.2kbits/sframe=  590 fps= 15 q=0.0 size=    6193kB time=00:00:09.96 bitrate=5088.9kbits/sframe=  596 fps= 15 q=0.0 size=    6326kB time=00:00:10.07 bitrate=5143.8kbits/sframe=  603 fps= 15 q=0.0 size=    6439kB time=00:00:10.19 bitrate=5175.8kbits/sframe=  608 fps= 15 q=0.0 size=    6526kB time=00:00:10.27 bitrate=5202.0kbits/sframe=  615 fps= 15 q=0.0 size=    6651kB time=00:00:10.36 bitrate=5258.1kbits/sframe=  625 fps= 15 q=0.0 size=    7040kB time=00:00:10.55 bitrate=5461.8kbits/sframe=  632 fps= 15 q=0.0 size=    7344kB time=00:00:10.66 bitrate=5640.6kbits/sframe=  638 fps= 15 q=0.0 size=    7449kB time=00:00:10.77 bitrate=5664.3kbits/sframe=  644 fps= 15 q=0.0 size=    7563kB time=00:00:10.87 bitrate=5694.8kbits/sframe=  650 fps= 15 q=0.0 size=    7675kB time=00:00:10.96 bitrate=5733.9kbits/sframe=  656 fps= 15 q=0.0 size=    7781kB time=00:00:11.08 bitrate=5752.5kbits/sframe=  662 fps= 15 q=0.0 size=    7928kB time=00:00:11.16 bitrate=5816.1kbits/sframe=  668 fps= 14 q=0.0 size=    8081kB time=00:00:11.27 bitrate=5872.6kbits/sframe=  674 fps= 14 q=0.0 size=    8210kB time=00:00:11.37 bitrate=5910.6kbits/sframe=  680 fps= 14 q=0.0 size=    8355kB time=00:00:11.46 bitrate=5969.8kbits/sframe=  687 fps= 14 q=0.0 size=    8507kB time=00:00:11.55 bitrate=6028.9kbits/sframe=  692 fps= 14 q=0.0 size=    8624kB time=00:00:11.66 bitrate=6055.8kbits/sframe=  698 fps= 14 q=0.0 size=    8752kB time=00:00:11.77 bitrate=6089.7kbits/sframe=  704 fps= 14 q=0.0 size=    8874kB time=00:00:11.87 bitrate=6119.5kbits/sframe=  710 fps= 14 q=0.0 size=    9006kB time=00:00:11.96 bitrate=6166.4kbits/sframe=  717 fps= 14 q=0.0 size=    9146kB time=00:00:12.05 bitrate=6212.8kbits/sframe=  722 fps= 14 q=0.0 size=    9253kB time=00:00:12.16 bitrate=6230.2kbits/sframe=  728 fps= 14 q=0.0 size=    9386kB time=00:00:12.27 bitrate=6265.3kbits/sframe=  735 fps= 14 q=0.0 size=    9536kB time=00:00:12.35 bitrate=6321.5kbits/sframe=  740 fps= 14 q=0.0 size=    9647kB time=00:00:12.46 bitrate=6340.3kbits/sframe=  747 fps= 13 q=0.0 size=    9790kB time=00:00:12.55 bitrate=6385.9kbits/sframe=  752 fps= 13 q=0.0 size=    9903kB time=00:00:12.66 bitrate=6405.2kbits/sframe=  758 fps= 13 q=0.0 size=   10032kB time=00:00:12.77 bitrate=6434.3kbits/sframe=  765 fps= 13 q=0.0 size=   10171kB time=00:00:12.85 bitrate=6480.0kbits/sframe=  770 fps= 13 q=0.0 size=   10271kB time=00:00:12.97 bitrate=6487.4kbits/sframe=  776 fps= 13 q=0.0 size=   10405kB time=00:00:13.07 bitrate=6518.4kbits/sframe=  782 fps= 13 q=0.0 size=   10572kB time=00:00:13.14 bitrate=6590.8kbits/sframe=  782 fps= 13 q=0.0 size=   10572kB time=00:00:13.16 bitrate=6580.1kbits/sframe=  788 fps= 13 q=0.0 size=   10747kB time=00:00:13.26 bitrate=6635.3kbits/sframe=  794 fps= 13 q=0.0 size=   10901kB time=00:00:13.37 bitrate=6676.7kbits/sframe=  800 fps= 13 q=0.0 size=   11032kB time=00:00:13.47 bitrate=6709.2kbits/sframe=  806 fps= 13 q=0.0 size=   11154kB time=00:00:13.57 bitrate=6729.9kbits/sframe=  812 fps= 13 q=0.0 size=   11268kB time=00:00:13.66 bitrate=6756.3kbits/sframe=  818 fps= 13 q=0.0 size=   11389kB time=00:00:13.76 bitrate=6775.9kbits/sframe=  824 fps= 13 q=0.0 size=   11467kB time=00:00:13.87 bitrate=6770.3kbits/sframe=  830 fps= 13 q=0.0 size=   11551kB time=00:00:13.97 bitrate=6773.4kbits/sframe=  837 fps= 13 q=0.0 size=   11674kB time=00:00:14.05 bitrate=6804.3kbits/sframe=  842 fps= 13 q=0.0 size=   11769kB time=00:00:14.16 bitrate=6807.7kbits/sframe=  848 fps= 13 q=0.0 size=   11882kB time=00:00:14.26 bitrate=6821.5kbits/sframe=  856 fps= 13 q=0.0 size=   12027kB time=00:00:14.39 bitrate=6843.6kbits/sframe=  860 fps= 13 q=0.0 size=   12105kB time=00:00:14.47 bitrate=6853.1kbits/sframe=  868 fps= 13 q=0.0 size=   12246kB time=00:00:14.59 bitrate=6872.4kbits/sframe=  878 fps= 13 q=0.0 size=   12818kB time=00:00:14.76 bitrate=7109.8kbits/sframe=  885 fps= 13 q=0.0 size=   12957kB time=00:00:14.85 bitrate=7145.7kbits/sframe=  890 fps= 13 q=0.0 size=   13060kB time=00:00:14.97 bitrate=7146.6kbits/sframe=  897 fps= 12 q=0.0 size=   13178kB time=00:00:15.05 bitrate=7170.7kbits/sframe=  902 fps= 12 q=0.0 size=   13279kB time=00:00:15.16 bitrate=7174.8kbits/sframe=  908 fps= 12 q=0.0 size=   13388kB time=00:00:15.26 bitrate=7182.9kbits/sframe=  914 fps= 12 q=0.0 size=   13506kB time=00:00:15.35 bitrate=7203.7kbits/sframe=  920 fps= 12 q=0.0 size=   13620kB time=00:00:15.46 bitrate=7214.2kbits/sframe=  926 fps= 12 q=0.0 size=   13726kB time=00:00:15.57 bitrate=7220.3kbits/sframe=  932 fps= 12 q=0.0 size=   13843kB time=00:00:15.65 bitrate=7242.2kbits/sframe=  938 fps= 12 q=0.0 size=   13960kB time=00:00:15.76 bitrate=7254.4kbits/sframe=  944 fps= 12 q=0.0 size=   14076kB time=00:00:15.85 bitrate=7270.8kbits/sframe=  950 fps= 12 q=0.0 size=   14188kB time=00:00:15.96 bitrate=7279.5kbits/sframe=  956 fps= 12 q=0.0 size=   14316kB time=00:00:16.07 bitrate=7296.4kbits/sframe=  962 fps= 12 q=0.0 size=   14441kB time=00:00:16.15 bitrate=7321.6kbits/sframe=  967 fps= 12 q=0.0 size=   14605kB time=00:00:16.24 bitrate=7365.7kbits/sframe=  970 fps= 12 q=0.0 size=   14735kB time=00:00:16.29 bitrate=7407.7kbits/sframe=  974 fps= 12 q=0.0 size=   14861kB time=00:00:16.35 bitrate=7441.7kbits/sframe=  980 fps= 12 q=0.0 size=   15027kB time=00:00:16.46 bitrate=7476.3kbits/sframe=  987 fps= 12 q=0.0 size=   15161kB time=00:00:16.55 bitrate=7503.7kbits/sframe=  992 fps= 12 q=0.0 size=   15247kB time=00:00:16.65 bitrate=7497.9kbits/sframe=  998 fps= 12 q=0.0 size=   15360kB time=00:00:16.76 bitrate=7505.4kbits/sframe= 1004 fps= 12 q=0.0 size=   15460kB time=00:00:16.85 bitrate=7512.2kbits/sframe= 1010 fps= 12 q=0.0 size=   15778kB time=00:00:16.96 bitrate=7618.2kbits/sframe= 1017 fps= 12 q=0.0 size=   16080kB time=00:00:17.05 bitrate=7725.2kbits/sframe= 1026 fps= 12 q=0.0 size=   16131kB time=00:00:17.22 bitrate=7672.8kbits/sframe= 1038 fps= 12 q=0.0 size=   16168kB time=00:00:17.42 bitrate=7601.6kbits/sframe= 1050 fps= 12 q=0.0 size=   16207kB time=00:00:17.63 bitrate=7527.7kbits/sframe= 1062 fps= 12 q=0.0 size=   16248kB time=00:00:17.83 bitrate=7463.2kbits/sframe= 1075 fps= 12 q=0.0 size=   16286kB time=00:00:18.04 bitrate=7392.3kbits/sframe= 1087 fps= 12 q=0.0 size=   16327kB time=00:00:18.24 bitrate=7329.2kbits/sframe= 1099 fps= 12 q=0.0 size=   16364kB time=00:00:18.44 bitrate=7269.4kbits/sframe= 1112 fps= 12 q=0.0 size=   16407kB time=00:00:18.63 bitrate=7213.3kbits/sframe= 1131 fps= 13 q=0.0 size=   16469kB time=00:00:18.98 bitrate=7106.9kbits/sframe= 1142 fps= 13 q=0.0 size=   16504kB time=00:00:19.15 bitrate=7058.4kbits/sframe= 1154 fps= 13 q=0.0 size=   16541kB time=00:00:19.35 bitrate=7000.7kbits/sframe= 1167 fps= 13 q=0.0 size=   16583kB time=00:00:19.54 bitrate=6949.9kbits/sframe= 1179 fps= 13 q=0.0 size=   16621kB time=00:00:19.74 bitrate=6894.4kbits/sframe= 1190 fps= 13 q=0.0 size=   16658kB time=00:00:19.96 bitrate=6835.9kbits/s[nut @ 0x7fc0bc012c00] Multiple keyframes with same PTS
    Last message repeated 8 times
frame= 1201 fps= 13 q=-1.0 Lsize=   16732kB time=00:00:20.03 bitrate=6841.7kbits/s speed=0.214x   
video:12958kB audio:3751kB subtitle:0kB other streams:0kB global headers:0kB muxing overhead: 0.135078%
[libx264rgb @ 0x7fc0bc015000] frame I:6     Avg QP: 0.00  size:125142
[libx264rgb @ 0x7fc0bc015000] frame P:1195  Avg QP: 0.00  size: 10475
[libx264rgb @ 0x7fc0bc015000] mb I  I16..4: 85.7%  0.0% 14.3%
[libx264rgb @ 0x7fc0bc015000] mb P  I16..4:  0.3%  0.0%  0.2%  P16..4:  6.7%  1.1%  2.4%  0.7%  0.1%    skip:88.4%
[libx264rgb @ 0x7fc0bc015000] 8x8 transform intra:0.0% inter:0.9%
[libx264rgb @ 0x7fc0bc015000] coded y,u,v intra: 30.8% 22.3% 30.7% inter: 0.4% 0.2% 0.7%
[libx264rgb @ 0x7fc0bc015000] i16 v,h,dc,p: 72% 27%  1%  0%
[libx264rgb @ 0x7fc0bc015000] i4 v,h,dc,ddl,ddr,vr,hd,vl,hu: 56% 39%  4%  0%  0%  0%  0%  0%  0%
[libx264rgb @ 0x7fc0bc015000] Weighted P-Frames: Y:2.3% UV:2.3%
[libx264rgb @ 0x7fc0bc015000] ref P L0: 36.0%  0.1%  8.8%  5.6%  2.2%  0.5%  0.2% 18.0% 12.9%  5.6%  2.0%  2.1%  2.8%  1.6%  0.8%  0.7%
[libx264rgb @ 0x7fc0bc015000] kb/s:5307.32


Code: Select all
HDLs-MacBook-Pro:~ HDL$ ffprobe /Users/HDL/Desktop/Stage3--4-40-18.nut
ffprobe version N-84005-g3ba7b47-tessus Copyright (c) 2007-2017 the FFmpeg developers
  built with Apple LLVM version 8.0.0 (clang-800.0.42.1)
  configuration: --cc=/usr/bin/clang --prefix=/opt/ffmpeg --extra-version=tessus --enable-avisynth --enable-fontconfig --enable-gpl --enable-libass --enable-libbluray --enable-libfreetype --enable-libgsm --enable-libmodplug --enable-libmp3lame --enable-libopencore-amrnb --enable-libopencore-amrwb --enable-libopus --enable-libschroedinger --enable-libsnappy --enable-libsoxr --enable-libspeex --enable-libtheora --enable-libvidstab --enable-libvo-amrwbenc --enable-libvorbis --enable-libvpx --enable-libwavpack --enable-libx264 --enable-libx265 --enable-libxavs --enable-libxvid --enable-libzmq --enable-libzvbi --enable-version3 --disable-ffplay --disable-indev=qtkit --disable-indev=x11grab_xcb
  libavutil      55. 48.100 / 55. 48.100
  libavcodec     57. 83.100 / 57. 83.100
  libavformat    57. 66.104 / 57. 66.104
  libavdevice    57.  3.100 / 57.  3.100
  libavfilter     6. 76.100 /  6. 76.100
  libswscale      4.  3.101 /  4.  3.101
  libswresample   2.  4.100 /  2.  4.100
  libpostproc    54.  2.100 / 54.  2.100
Input #0, nut, from '/Users/HDL/Desktop/Stage3--4-40-18.nut':
  Metadata:
    major_brand     : qt 
    minor_version   : 537199360
    compatible_brands: qt 
    encoder         : Lavf57.66.104
  Duration: 00:00:20.02, start: 0.000000, bitrate: 6847 kb/s
    Stream #0:0(eng): Video: h264 (High 4:4:4 Predictive) (H264 / 0x34363248), gbrp(tv, gbr/unknown/unknown), 1920x1080, 60 fps, 60.10 tbr, 60.10 tbn, 120.20 tbc (default)
    Metadata:
      creation_time   : 2017-03-26T02:26:24.000000Z
      handler_name    : Apple Alias Data Handler
      encoder         : Lavc57.83.100 libx264rgb
    Stream #0:1(eng): Audio: pcm_s16be ([16]DSP / 0x50534410), 48000 Hz, 2 channels, s16, 1536 kb/s (default)
    Metadata:
      creation_time   : 2017-03-26T02:26:24.000000Z
      handler_name    : Apple Alias Data Handler
HDL
 
Posts: 4
Joined: Tue Nov 04, 2014 1:52 am

Return to ffmpeg

Who is online

Users browsing this forum: No registered users and 5 guests